#TITLE:10 Trauma;
#SUBTITLE:(Non-Stop Mega Mix Version);
#ARTIST:浜崎あゆみ;
#TITLETRANSLIT:;
#SUBTITLETRANSLIT:;
#ARTISTTRANSLIT:ayumi hamasaki;
#CREDIT:;
#BANNER:Trauma.png;
#BACKGROUND:Trauma-bg.png;
#LYRICSPATH:Trauma (Non-Stop Mega Mix Version).lrc;
#CDTITLE:to.png;
#MUSIC:Trauma (Non-Stop Mega Mix Version).MP3;
#OFFSET:-0.240;
#SAMPLESTART:0.200;
#SAMPLELENGTH:12.000;
#SELECTABLE:YES;
#BPMS:0.000=136.000;
#STOPS:;
#BGCHANGES:;
// cache tags:
#FIRSTBEAT:0.000;
#LASTBEAT:459.250;
#SONGFILENAME:Songs/SS Ayu Style -Mini Pack-/Trauma (Non-Stop Mega Mix Version)/Trauma (Non-Stop Mega Mix Version).sm;
#HASMUSIC:1;
#HASBANNER:1;
#MUSICLENGTH:203.005;
// end cache tags

//---------------dance-single - ----------------
#NOTES:
     dance-single:
     :
     Hard:
     10:
     0.765,0.764,0.606,0.123,0.517,939.000,123.000,25.000,0.000,0.000:
1100
0000
0001
0000
1000
0000
0010
0000
0110
0000
0000
0110
0000
0000
1100
0000
,
0000
0000
1000
0000
0001
0000
0100
0000
0110
0000
0000
0110
0000
0000
1001
0000
,
1000
0010
1000
0100
1000
0010
1000
0100
,
0001
1000
0001
1000
0001
0010
0001
0010
0001
0100
0001
0100
0001
0000
0110
0000
,
1100
0000
0001
0000
1000
0000
0100
0000
0011
0000
0000
1001
0000
0000
1100
0000
,
0000
0000
0001
0000
1000
0000
0100
0000
0011
0000
0000
1001
0000
0000
0101
0000
,
0001
0010
0001
1000
0001
0010
0001
0100
,
0001
0100
0001
0100
0010
1000
0010
1000
0001
0100
0010
1000
0100
0000
0101
0000
,
1001
0010
1000
0100
0101
0010
0001
0100
,
1100
0010
1000
0100
1001
0010
0100
1000
,
1100
0001
0100
1000
0011
1000
0010
0001
,
0011
0000
0000
1000
0100
0000
0010
0000
0011
0000
0000
1000
0100
0000
0010
0000
,
0101
0000
1000
0000
0100
0000
0010
0000
0001
1000
0001
0000
1000
0000
0010
0000
,
0011
0000
0000
0100
1000
0000
0001
0000
0011
0000
0000
0100
1000
0000
0001
0000
,
0110
0000
1000
0000
0100
0000
0010
0000
0001
0100
0001
0000
1000
0000
0010
0000
,
1001
0100
1010
0001
0110
1000
1001
0001
,
1100
0000
0000
1100
0000
0000
0011
0000
1001
0000
0000
1001
0000
0000
0110
0000
,
0001
0000
1000
0001
0100
0000
1000
0000
0101
0000
0000
0101
0000
0000
1010
0000
,
1000
0000
0001
1000
0100
0000
0001
0000
1100
0000
0000
1100
0000
0000
0011
0000
,
1000
0000
0010
0001
0100
0000
0001
0000
1000
0000
0010
0001
0100
0000
0001
0000
,
1000
0000
0000
0001
0100
0000
0001
0000
1000
0010
1000
0000
0100
0000
0010
0000
,
0011
0000
0000
1000
0100
0000
0010
0000
0001
1000
0001
0000
0100
0000
0010
0000
,
1000
0000
0001
0000
1000
0000
0001
0000
0100
0010
0001
0000
1000
0000
0001
0000
,
1000
0000
1000
0000
0010
0000
0100
0000
1000
0100
0001
0000
0100
0000
0010
0000
,
0001
1000
0010
0100
0110
0110
1000
0001
,
0010
0000
1000
0000
0001
0000
0100
0000
0010
0001
0010
0000
0001
0000
1000
0000
,
0010
0000
1000
0000
0100
0001
0010
0000
1000
0000
0010
0000
0100
0001
0100
0000
,
1000
0100
0010
0010
1000
0010
1000
0010
,
0101
0000
0000
0000
1010
0000
0000
0001
1000
0000
0010
0000
1000
0000
0100
0000
,
0011
0000
0000
0000
0011
0000
0000
1000
0100
0000
0010
0000
0001
0000
1000
0000
,
1010
0000
0000
0000
1100
0000
0000
0001
0100
0000
0010
0000
1000
0000
0100
0000
,
0010
0000
0000
0000
0010
0000
0000
0001
1000
0000
0001
0000
0010
0000
0100
0000
,
1000
0001
0100
0001
1000
0001
0100
0001
,
1000
0000
0010
0100
0010
0000
0001
0000
1000
0000
0001
0000
0100
0000
0001
0000
,
0010
0000
0100
0000
1100
0000
1000
0000
0010
0000
0001
0000
1000
0100
1000
0000
,
0100
0000
0010
0001
1000
0000
0100
0000
0010
0000
1000
0000
0001
0100
0001
0100
,
0001
0000
0000
1000
0010
0000
0000
0000
0101
0000
0001
0000
0100
1000
0000
0010
,
1000
0000
0000
0000
1000
0000
0100
0000
0010
0000
0001
0000
0100
0001
0000
1000
,
0002
0100
0010
0103
,
1000
0000
0010
0000
0100
0000
0000
0000
1100
0000
0000
1000
0100
0000
0010
0000
,
0110
0000
0001
0000
1000
0000
0010
0000
1001
0000
0000
1001
0000
0000
0102
0000
,
0000
0000
1003
0000
0100
0000
0010
0000
0001
1000
0000
0100
0010
0000
0110
0000
,
1002
0000
0000
0000
1000
0000
0000
0000
1003
0100
0000
0001
0100
0000
0010
0000
,
1001
0000
0000
0000
1010
0000
0000
0000
0001
0100
0000
1000
0100
0000
0010
0000
,
1001
0000
0000
0000
0010
0000
0000
0000
1000
0001
0000
0100
0010
0000
1000
0000
,
0100
0000
0000
0000
0011
0000
0000
0000
0001
1000
0000
1000
0010
0000
0100
0000
,
1000
0010
1000
0100
1000
0010
1000
0100
,
0001
0000
0010
0000
0001
0000
0100
0000
0001
0010
0000
0001
0100
0000
0001
0000
,
1000
0000
0001
0000
0010
0000
0100
0000
0001
1000
0000
0100
0010
0000
0100
0000
,
0001
0000
1000
0000
0010
0000
0100
0000
0001
1000
0000
1000
0010
0000
0101
0000
,
1010
1000
0010
2002
0000
0000
0003
3001
,
0110
0000
0100
0000
0010
0000
0011
0000
0000
0000
1000
0010
0000
1000
0010
0000
,
1100
0000
0010
0000
0001
0000
0100
0000
1000
0010
0000
0010
0100
0000
0001
0000
,
1000
0000
0010
0000
0100
0000
1000
0000
0001
0001
0000
1000
1000
0000
0100
0000
,
0020
0000
0000
0000
0000
0000
0031
0000
0000
0000
0010
1000
0000
1000
0100
0000
,
2000
0000
0000
0000
0010
0000
3100
0000
0000
0000
0001
0100
0000
0001
0010
0000
,
0001
0000
0000
0100
1000
0000
0100
0000
0010
0000
0000
0100
0001
0000
0100
0000
,
1010
0000
1000
0000
0011
0000
0001
0000
1000
0100
1000
0000
0010
1000
0020
0000
,
0130
0000
0100
0000
1000
0001
0000
1000
0100
0000
0010
0000
0001
0100
0000
0001
,
0010
0000
0010
0000
1000
0100
0000
1000
0001
0000
0010
0000
0100
1000
0000
0010
,
1000
0000
0100
0000
0001
0100
0000
0010
1000
0000
0100
0000
0010
0001
0000
0100
,
0001
0000
1000
0000
0010
1000
0000
0001
0100
0000
0001
0000
1000
0000
0010
0000
,
0100
1000
0100
0000
1000
0000
0100
0000
0010
0001
0010
0000
0001
0000
0010
0000
,
0001
1000
0001
0000
1000
0000
0010
0000
0100
0010
0100
0000
0001
0000
1000
0000
,
0010
1000
0010
0000
0100
0001
1000
0000
0010
0001
0010
0000
0100
0001
1000
0100
,
0020
0000
0031
0000
1001
0000
0100
0000
1001
0000
0100
0000
0001
1000
0001
1000
,
0100
0000
0020
0000
0000
0000
1030
0100
1000
0000
2000
0000
0000
0000
3010
0000
,
0001
0000
1000
0010
0200
0000
0001
0000
0301
0000
1000
0000
0010
0000
0100
0000
,
1000
0002
0010
0010
1003
0200
0000
0310
,
1000
0000
0001
0100
0001
0000
0100
0000
0110
0000
0000
1001
0000
0000
1100
0000
,
1000
0000
0200
0000
0000
0301
1000
0000
0001
0000
0200
0000
0000
0000
0310
0000
,
0001
0000
2000
0000
0000
3010
0100
0000
1000
0000
0100
0000
1000
0000
0010
0000
,
0001
0000
2000
0000
0000
3010
1000
0000
0001
0000
0200
0000
0000
0000
0310
0000
,
1001
0000
1000
0010
0100
0000
0001
0010
0100
0000
0100
0000
1000
0001
1000
0001
,
1000
0000
1000
0000
0100
1000
0000
1000
0001
0000
0001
0000
0100
0001
0000
0001
,
0010
0000
0010
0000
0100
0010
0000
0010
0100
0000
0100
0000
0010
0100
0000
0100
,
0001
0000
1000
0000
0001
1000
0000
0010
1000
0000
0100
0000
0001
0100
0000
0010
,
0100
0000
1000
0000
0001
1000
0000
0010
1000
0000
0100
0000
0010
0001
0000
0100
,
0001
0001
1010
0100
0001
0001
1100
0010
,
0001
1000
0001
0000
1000
0100
1000
0000
0001
0010
0001
0000
0100
0001
0100
0000
,
1000
0010
1000
0000
0001
0100
0001
0000
0010
1000
0010
0000
0100
0001
0100
0000
,
0010
1000
0001
0000
0100
0001
1000
0000
0010
1000
0010
1000
0100
0001
0100
0010
,
0100
0000
0000
1001
0000
0000
0010
0000
0000
0000
0001
1000
0000
0010
0000
0000
,
0100
0000
0000
1001
0000
0000
0010
0000
0000
0000
0001
1000
0000
0100
0000
0000
,
0010
0000
0000
0001
0000
0000
0100
0000
0000
0000
0001
1000
0000
0001
0000
0000
,
1000
0000
0000
0100
0000
0000
0011
0000
0000
0000
0001
0100
0000
0010
0000
0000
,
1000
0000
0000
0001
0000
0000
0110
0000
0000
0000
0001
1000
0000
0000
0100
0000
,
0010
0000
0000
0010
0000
0000
1001
0000
0000
0000
0001
1000
0000
0000
0001
0000
,
0010
0000
0000
1000
0100
0000
0100
0000
0000
0001
1000
0000
0010
0000
0000
0000
,
1001
0001
1100
0010
0101
0100
1010
1000
,
1001
0000
0100
0101
0000
0010
0110
0000
,
1000
0010
0001
0100
0001
1000
0010
0100
,
0110
0000
1000
1100
0000
0001
0101
0000
,
0010
1000
0010
0100
0001
0100
1000
0010
,
0200
0000
0301
2000
0000
3010
0200
0300
,
0110
1000
0002
0000
0000
0000
0013
0000
,
1000
0000
0100
0000
0000
0001
0000
0000
1000
0000
0000
0100
0000
0000
0001
0000
,
1000
0000
0100
0000
0000
0010
0000
0000
0100
0000
0000
1000
0000
0000
0010
0000
,
1000
0001
0000
0100
0001
0000
0010
0001
0000
0000
0000
0000
1100
0000
0010
0000
,
1001
0000
0100
0000
1000
0000
0010
0000
0100
1000
0000
0010
1000
0000
0001
0000
,
1000
0010
0000
1000
0100
0000
0000
1000
0001
0000
0000
0001
0100
0000
0010
0000
,
1100
0000
0001
0000
1000
0000
0100
0000
0010
1000
0000
0100
1000
0000
0001
0000
,
0010
0001
0000
0010
1000
0000
0000
0000
0010
0100
0000
0100
0001
0000
0010
0000
,
1001
0000
0010
0000
1000
0000
0100
0000
0001
0100
0000
0010
1000
0000
0010
0000
,
0100
0001
0000
1000
0100
0000
0010
0000
1000
0001
0000
0010
0001
0000
1000
0000
,
0010
0000
1000
0000
0101
0000
1000
0000
0010
0001
0000
0001
1000
0000
0010
0000
,
0210
0000
0000
0000
0001
0300
0110
1100
,
0001
1000
0000
1000
0010
0000
0000
0000
0100
0001
0000
0001
0010
0000
0000
0000
,
0100
1000
0000
1000
0010
0000
0000
0000
0100
0001
0000
0001
1000
0000
0000
0000
,
0010
0001
0000
0001
0100
0000
0000
0000
0110
0000
0000
0000
1001
0000
0000
0000
,
1000
0010
1000
0100
0011
0011
1100
1100
,
0001
1000
0000
1000
0200
0000
0000
0000
1000
0000
0000
0000
0310
0000
0000
0000
,
0001
0010
0100
0100
1100
1100
0011
0011
,
1000
0010
1000
0100
0101
0001
1100
1000
,
0011
0000
1100
0000
0011
0000
1010
0000
0101
0000
0001
1000
0001
1000
0000
0000
;
